BlacKkKlansman - J'ai infiltré le Ku Klux Klan FRENCH DVDRIP 2018 | web interface | Lupin III (2015)
 * Dettagli Torrent   globale  | Commenti (0) 


- Air Force One (1997).720p.H264.italian.english.Ac3-5.1.sub.ita-MIRCrew -


Download via torrent:
Categoria bittorrent BDRip
Descrizione
Air Force One (1997).720p.H264.italian.english.Ac3-5.1.sub.ita-MIRCrew


visitate mircrew-releases


NO FOUND ONLY ORIGINAL RELEASE



My release is always in double track audio italian and Original audio
for select it use VLC or dvd player home
not use wmp

Air Force One (1997)

Quality MIRCrew on HD 720p da  2,3 gb







Titolo originale Air Force One
Lingua originale inglese
Paese di produzione USA
Anno 1997
Durata 115 min
Rapporto 2,35:1
Genere azione, drammatico, thriller
Regia Wolfgang Petersen
Sceneggiatura Andrew W. Marlowe



   Harrison Ford: Presidente James Marshall
   Gary Oldman: Egor Korshunov
   Glenn Close: Vicepresidente Kathryn Bennett
   Wendy Crewson: First Lady Grace Marshall
   Paul Guilfoyle: Capo dello staff Lloyd "Shep" Sheperd
   William H. Macy: Maggiore Caldwell
   Liesel Matthews: Alice Marshall
   Xander Berkeley: Agente Gibbs
   Dean Stockwell: Segretario della difesa Walter Dean
   Tom Everett: Addetto alla sicurezza nazionale Jack Doherty
   Donna Bullock: Vicesegretaria di stampa Melanie Mitchell
   Jürgen Prochnow: Generale Ivan Radek
   Levan Uchaneishvili: Sergei Lenski
   Oleg Taktarov: Guardia dei prigionieri



Il presidente degli Stati Uniti d'America James Marshall e la sua famiglia sono in viaggio sull'aereo presidenziale, l'Air Force One, insieme ad alcuni componenti dello staff presidenziale. Non sanno, però, che si sono imbarcati segretamente un gruppo di spietati terroristi kazaki guidati da Egor Korshunov, che hanno come fine la liberazione del dittatore del loro paese, il generale Ivan Radek, catturato dalla Delta Force e dalla Specnaz e tenuto prigioniero nelle carceri russe.



Communist Radicals hijack Air Force One with The U.S. President and his family on board. The Vice President negotiates from Washington D.C., while the President, a Veteran, fights to rescue the hostages on board







General
Unique ID                                : 106020296099171984402032741119181592684 (0x4FC2C42C0A9E73DD0EE9B316AF66186C)
Complete name                            : Air Force One (1997).720p.h264.ita.eng.sub.ita.eng-MIRCrew\Air Force One (1997).720p.h264.ita.eng.sub.ita.eng-MIRCrew.mkv
Format                                   : Matroska
Format version                           : Version 2
File size                                : 2.30 GiB
Duration                                 : 2h 4mn
Overall bit rate                         : 2 637 Kbps
Movie name                               : MIRCrew
Encoded date                             : UTC 2018-09-22 16:47:52
Writing application                      : Lavf54.63.100
Writing library                          : Lavf54.63.100

Video
ID                                       : 1
Format                                   : AVC
Format/Info                              : Advanced Video Codec
Format profile                           : [email protected]
Format settings, CABAC                   : Yes
Format settings, ReFrames                : 2 frames
Codec ID                                 : V_MPEG4/ISO/AVC
Duration                                 : 2h 4mn
Bit rate                                 : 1 750 Kbps
Width                                    : 1 280 pixels
Height                                   : 528 pixels
Display aspect ratio                     : 2.40:1
Frame rate mode                          : Variable
Frame rate                               : 23.976 fps
Color space                              : YUV
Chroma subsampling                       : 4:2:0
Bit depth                                : 8 bits
Scan type                                : Progressive
Bits/(Pixel*Frame)                       : 0.108
Stream size                              : 1.47 GiB (64%)
Title                                    : BjL BDRip 1080p [Avg.DRF=20.16]
Writing library                          : x264 core 130 r2273
Encoding settings                        : cabac=1 / ref=2 / deblock=1:0:0 / analyse=0x1:0x131 / me=hex / subme=7 / psy=1 / psy_rd=1.00:0.00 / mixed_ref=0 / me_range=16 / chroma_me=1 / trellis=1 / 8x8dct=0 / cqm=0 / deadzone=21,11 / fast_pskip=1 / chroma_qp_offset=-2 / threads=3 / lookahead_threads=1 / sliced_threads=0 / nr=0 / decimate=1 / interlaced=0 / bluray_compat=0 / constrained_intra=0 / bframes=3 / b_pyramid=0 / b_adapt=1 / b_bias=0 / direct=3 / weightb=1 / open_gop=0 / weightp=2 / keyint=230 / keyint_min=23 / scenecut=40 / intra_refresh=0 / rc_lookahead=40 / rc=abr / mbtree=1 / bitrate=1750 / ratetol=1.0 / qcomp=0.60 / qpmin=10 / qpmax=69 / qpstep=4 / vbv_maxrate=24000 / vbv_bufsize=24000 / nal_hrd=none / ip_ratio=1.40 / aq=1:1.00
Language                                 : Italian
Default                                  : Yes
Forced                                   : No
DURATION                                 : 02:04:35.426000000
NUMBER_OF_FRAMES                         : 179231
NUMBER_OF_BYTES                          : 9070725713
_STATISTICS_WRITING_APP                  : mkvmerge v8.3.0 ('Over the Horizon') 64bit
_STATISTICS_WRITING_DATE_UTC             : 2017-05-05 10:25:26
_STATISTICS_TAGS                         : BPS DURATION NUMBER_OF_FRAMES NUMBER_OF_BYTES

Audio #1
ID                                       : 2
Format                                   : AC-3
Format/Info                              : Audio Coding 3
Mode extension                           : CM (complete main)
Codec ID                                 : A_AC3
Duration                                 : 2h 4mn
Bit rate mode                            : Constant
Bit rate                                 : 448 Kbps
Channel(s)                               : 6 channels
Channel positions                        : Front: L C R, Side: L R, LFE
Sampling rate                            : 48.0 KHz
Bit depth                                : 16 bits
Compression mode                         : Lossy
Delay relative to video                  : 1mn 5s
Stream size                              : 399 MiB (17%)
Title                                    : Italiano AC3 5.1
Language                                 : Italian
Default                                  : Yes
Forced                                   : No
DURATION                                 : 02:04:34.496000000
NUMBER_OF_FRAMES                         : 233578
NUMBER_OF_BYTES                          : 597959680
_STATISTICS_WRITING_APP                  : mkvmerge v8.3.0 ('Over the Horizon') 64bit
_STATISTICS_WRITING_DATE_UTC             : 2017-05-05 10:25:26
_STATISTICS_TAGS                         : BPS DURATION NUMBER_OF_FRAMES NUMBER_OF_BYTES

Audio #2
ID                                       : 3
Format                                   : AC-3
Format/Info                              : Audio Coding 3
Mode extension                           : CM (complete main)
Codec ID                                 : A_AC3
Duration                                 : 2h 4mn
Bit rate mode                            : Constant
Bit rate                                 : 448 Kbps
Channel(s)                               : 6 channels
Channel positions                        : Front: L C R, Side: L R, LFE
Sampling rate                            : 48.0 KHz
Bit depth                                : 16 bits
Compression mode                         : Lossy
Delay relative to video                  : 1mn 5s
Stream size                              : 399 MiB (17%)
Title                                    : English AC3 5.1
Language                                 : English
Default                                  : No
Forced                                   : No
DURATION                                 : 02:04:34.496000000
NUMBER_OF_FRAMES                         : 233578
NUMBER_OF_BYTES                          : 597959680
_STATISTICS_WRITING_APP                  : mkvmerge v8.3.0 ('Over the Horizon') 64bit
_STATISTICS_WRITING_DATE_UTC             : 2017-05-05 10:25:26
_STATISTICS_TAGS                         : BPS DURATION NUMBER_OF_FRAMES NUMBER_OF_BYTES





Info: Per scaricare devi usare un client come uTorrent o Transmission
AnnounceURL
udp://tracker.coppersurfer.tk:6969/announce
Hash cd707209ea08837c0e3b210ed8d59104dcf1e57d
Peers seeds: 43 , leech: 16
Size 2.31 GB
Completato 672x
Aggiunto 17.10.18 - 17:10:37
Uploader   robbyrs
Votazione (Voti: 1)


Condividi questo bittorrent:


html/blog:


bbcode/forum:




Aggiungi Commento


counter